Главная Торренты / Файлы Форум Войти Восстановить Пароль Регистрация Служба техподдержки 
 
 
Добро пожаловать на торрент трекер Tracker.nova-lan.ru - Найдется все !.
Самые новые фильмы, музыка, игры, софт. Работают три парсера, качай - не хочу! В подарок 10 Гб новому пользователю. Регистрируйтесь и Заходите – не пожалеете!
 

:: Детали торрента

Дежурный папа: Летний лагерь / Daddy Day Camp Золотой торрент

ПредупреждениеАвторизуйтесь, чтобы скачать .torrent файл.
Данная раздача является свободной — учитывается только количество отданного, количество скачанного не фиксируется.
Теги / Меткиcomedy, family
Постер
ОписаниеОригинальное название: Daddy Day Camp
Название: Дежурный папа: Летний лагерь
Trailer:
Трейлер

Год выхода: 2007
Страна: США
Жанр: Comedy / Family
Режиссер: Фред Сэвидж
Автор сценариев: Джофф Родкей, Дж. Дэвид Стем, Дэвид Н. Уайсс
В ролях: Куба Гудинг мл., Пол Рае, Лохлин Мунро, Ричард Гант, Тамала Джоунс, Брайн Дойл-Мюррей, Френк Джерриш, Люк Кейдж, Джинджер Уильямс, Бен Хэммонд
Продолжительность: 01:29:00
Язык: Русский
Перевод: Профессиональный (многоголосый, закадровый)
Субтитры: Russian, English
Rip by: Enigma-Vladislav71
О фильме: Папаши Чарли Хинтон и Фил Райерсон берут на себя руководство летним детским лагерем. Не имея никакого представления о том, как следует жить в лесной глуши, ремонтировать ветхие и полуразрушенные строения и обращаться с неугомонной малышней, Чарли и Фил вскоре теряют контроль над ситуацией. Чтобы не загубить все окончательно и не лишиться работы, Чарли призывает на помощь своего отца, полковника Бака Хинтона, уже давно потерявшего с ним всякую связь. И теперь уже трем горе-отцам надо будет навести порядок в лагере, сплотить коллектив и научить детей стойкости и умению прощать…

MediaIndo

General
Format : Matroska
Format version : Version 2
File size : 4.45 GiB
Duration : 1h 29mn
Overall bit rate : 7 157 Kbps
Movie name : Dezhurniy.papa.Letniy.lager.2007.x264.BDRip.(720p)
Encoded date : UTC 2012-09-01 09:57:19
Writing application : mkvmerge v4.0.0 ('The Stars were mine'-) Jun6 2010 16:18:42
Writing library : libebml v1.0.0 + libmatroska v1.0.0
Video #1
ID : 1
Format : AVC
Format/Info : Advanced Video Codec
Format profile : High@L4.1
Format settings, CABAC : Yes
Format settings, ReFrames : 8 frames
Codec ID : V_MPEG4/ISO/AVC
Duration : 1h 29mn
Bit rate : 5 203 Kbps
Width : 1 280 pixels
Height : 692 pixels
Display aspect ratio : 1.85:1
Frame rate mode : Constant
Frame rate : 23.976 fps
Color space : YUV
Chroma subsampling : 4:2:0
Bit depth : 8 bits
Scan type : Progressive
Bits/(Pixel*Frame) : 0.245
Stream size : 3.14 GiB (71%)
Title : Rip by Enigma-Vladislav71
Writing library : x264 core 92 r1510 33d382a
Encoding settings : cabac=1 / ref=8 / deblock=1:-2:-2 / analyse=0x3:0x133 / me=umh / subme=10 / psy=1 / psy_rd=1.00:0.00 / mixed_ref=1 / me_range=48 / chroma_me=1 / trellis=2 / 8x8dct=1 / cqm=0 / deadzone=21,11 / fast_pskip=0 / chroma_qp_offset=-2 / threads=3 / sliced_threads=0 / nr=0 / decimate=1 / interlaced=0 / constrained_intra=0 / bframes=8 / b_pyramid=2 / b_adapt=2 / b_bias=0 / direct=3 / wpredb=1 / wpredp=2 / keyint=240 / keyint_min=23 / scenecut=40 / intra_refresh=0 / rc=2pass / mbtree=0 / bitrate=5203 / ratetol=1.0 / qcomp=0.60 / qpmin=10 / qpmax=51 / qpstep=4 / cplxblur=20.0 / qblur=0.5 / ip_ratio=1.40 / pb_ratio=1.30 / aq=1:1.00
Language : English
Default : Yes
Forced : No
Audio #2
ID : 2
Format : AC-3
Format/Info : Audio Coding 3
Mode extension : CM (complete main)
Format settings, Endianness : Big
Codec ID : A_AC3
Duration : 1h 29mn
Bit rate mode : Constant
Bit rate : 448 Kbps
Channel(s) : 6 channels
Channel positions : Front: L C R, Side: L R, LFE
Sampling rate : 48.0 KHz
Bit depth : 16 bits
Compression mode : Lossy
Stream size : 285 MiB (6%)
Language : Russian
Default : Yes
Forced : No
Audio #3
ID : 3
Format : DTS
Format/Info : Digital Theater Systems
Mode : 16
Format settings, Endianness : Big
Codec ID : A_DTS
Duration : 1h 29mn
Bit rate mode : Constant
Bit rate : 1 509 Kbps
Channel(s) : 6 channels
Channel positions : Front: L C R, Side: L R, LFE
Sampling rate : 48.0 KHz
Bit depth : 24 bits
Compression mode : Lossy
Stream size : 961 MiB (21%)
Language : English
Default : No
Forced : No
Text #4
ID : 4
Format : UTF-8
Codec ID : S_TEXT/UTF8
Codec ID/Info : UTF-8 Plain Text
Language : Russian
Default : Yes
Forced : No
Text #5
ID : 5
Format : UTF-8
Codec ID : S_TEXT/UTF8
Codec ID/Info : UTF-8 Plain Text
Language : English
Default : No
Forced : No

Скриншоты



Release by: http://zamolxismd.org/m/kinozal.tv/pic/groupex/2746.gif
Файл
Качество HDTV: BDRip 720p
Видео: Н264 ,MPEG-4 AVC, 5203 Кбит/с, 1280х692
Звук: Русский (АС3, 6 ch, 448 Кбит/с), английский (DTS, 6 ch, 1510 Кбит/с)
Похожие файлы
Загрузка / Обновление
КатегорияФильмы / HDTV / HD / Blu-Ray RSS лента
РаздающийПоследний раз был здесь 1 месяц 3 недели 6 дней назад
Размер4.45 GB (4,777,618,735 байт)
Добавлен
Просмотров0 раз (a)
Взят0 раз (a)
Скачан0 раз (a)
Файлы1
Этот трекер
Этот трекер - Загрузка / Обновление
Мультитрекер
Мультитрекер - Загрузка / Обновление
Просматривают Просматривают Загрузка...

-†- ¿? -†-
« Предыдущая - † Страница † - Следующая »

:: Список Комментариев
Нет комментариев.

 Нет комментариев
Вам запрещенно редактировать, создать или удалять комментарии.
.:Tracker.nova-lan.ru - Найдется все ! © 2013 v.Platinum (III):.
Страничка сформирована за 0.029 секунд.